Torrent Details

Venom 2018 720p HDCAM x264 [MW]
Venom 2018 720p HDCAM x264 [MW]
Size1 GB in 1 file
ReleasesAdded Today at 9:40 into the Movies category by Unknown.
Status22 seeds & 56 peers.
Hash195176c590f30647a45445d3b37e1470774690b6
Rating
  • YourBT Visitors

Status This torrent has been verified.
*

Torrent Description

General
Format : Matroska
Format version : Version 4 / Version 2
File size : 1.04 GiB
Duration : 1 h 31 min
Overall bit rate : 1 629 kb/s

Video
ID : 1
Format : AVC
Format/Info : Advanced Video Codec
Format profile : [email protected]
Format settings : CABAC / 4 Ref Frames
Format settings, CABAC : Yes
Format settings, RefFrames : 4 frames
Codec ID : V_MPEG4/ISO/AVC
Duration : 1 h 31 min
Bit rate : 1 400 kb/s
Width : 1 280 pixels
Height : 536 pixels
Display aspect ratio : 2.40:1
Frame rate mode : Constant
Frame rate : 29.970 (30000/1001) FPS
Color space : YUV
Chroma subsampling : 4:2:0
Bit depth : 8 bits
Scan type : Progressive
Bits/(Pixel*Frame) : 0.068
Stream size : 915 MiB (86%)
Writing library : x264 core 155 r2901 7d0ff22
Default : Yes
Forced : No

Audio
ID : 2
Format : AAC
Format/Info : Advanced Audio Codec
Format profile : LC
Codec ID : A_AAC-2
Duration : 1 h 31 min
Bit rate : 221 kb/s
Channel(s) : 2 channels
Channel positions : Front: L R
Sampling rate : 48.0 kHz
Frame rate : 46.875 FPS (1024 SPF)
Compression mode : Lossy
Stream size : 144 MiB (14%)
Language : English
Default : Yes
Forced : No


Click To Enlarge Image









Similar Torrents

No Similar Torrents Found

If we find similar torrents, we normally show them right here. We couldn't find anything for "".

Torrent Trackers

TRACKER URLSEEDSPEERS
Onlineudp://mgtracker.org:6969/announce2233
Onlineudp://tracker.coppersurfer.tk:6969/announce1756
Onlineudp://tracker.opentrackr.org:1337/announce631
Onlineudp://tracker.pirateparty.gr:6969/announce642
Onlineudp://tracker.open-internet.nl:6969/announce312
Onlineudp://tracker.zer0day.to:1337/announce01

Files inside this torrent

FILENAMESIZE
icon Venom 2018 720p HDCAM x264 [MW].mkv1 GB