Torrent Details

The Nun 2018 NEW 720p HDCAM x264 [MW]
The Nun 2018 NEW 720p HDCAM x264 [MW]
Size1.1 GB in 1 file
ReleasesAdded Yesterday at 13:10 into the Movies category by Unknown.
Status23 seeds & 39 peers.
Hash2573e9a5d810205aef6d362487f7dcafe8abbf1f
Rating
  • YourBT Visitors

Status This torrent has been verified.
*

Torrent Description

General
Format : Matroska
Format version : Version 4 / Version 2
File size : 1.13 GiB
Duration : 1 h 33 min
Overall bit rate : 1 739 kb/s

Video
ID : 1
Format : AVC
Format/Info : Advanced Video Codec
Format profile : [email protected]
Format settings : CABAC / 4 Ref Frames
Format settings, CABAC : Yes
Format settings, RefFrames : 4 frames
Codec ID : V_MPEG4/ISO/AVC
Duration : 1 h 33 min
Bit rate : 1 600 kb/s
Width : 1 280 pixels
Height : 540 pixels
Display aspect ratio : 2.40:1
Frame rate mode : Constant
Frame rate : 30.000 FPS
Color space : YUV
Chroma subsampling : 4:2:0
Bit depth : 8 bits
Scan type : Progressive
Bits/(Pixel*Frame) : 0.077
Stream size : 1.05 GiB (92%)
Writing library : x264 core 155 r2901 7d0ff22
Default : Yes
Forced : No

Audio
ID : 2
Format : AAC
Format/Info : Advanced Audio Codec
Format profile : LC
Codec ID : A_AAC-2
Duration : 1 h 33 min
Bit rate : 128 kb/s
Channel(s) : 2 channels
Channel positions : Front: L R
Sampling rate : 48.0 kHz
Frame rate : 46.875 FPS (1024 SPF)
Compression mode : Lossy
Stream size : 85.2 MiB (7%)
Language : English
Default : Yes
Forced : No


Click To Enlarge Image









Similar Torrents

No Similar Torrents Found

If we find similar torrents, we normally show them right here. We couldn't find anything for "".

Torrent Trackers

TRACKER URLSEEDSPEERS
Onlineudp://tracker.coppersurfer.tk:6969/announce2336
Onlineudp://mgtracker.org:6969/announce1220
Onlineudp://tracker.pirateparty.gr:6969/announce1139
Onlineudp://tracker.opentrackr.org:1337/announce28
Onlineudp://tracker.open-internet.nl:6969/announce216
Onlineudp://tracker.zer0day.to:1337/announce02

Files inside this torrent

FILENAMESIZE
icon The Nun 2018 NEW 720p HDCAM x264 [MW].mkv1.1 GB