Torrent Details

Venom 2018 720p HD-TS Hindi Dubbed x264 [MW]
Venom 2018 720p HD-TS Hindi Dubbed x264 [MW]
Size1 GB in 1 file
ReleasesAdded on 10.06.2018 at 9:10 into the Movies category by Unknown.
Status15 seeds & 153 peers.
Hash06c6522d4f746f3fa988a2ae8ee594426f5b41a5
Rating
  • YourBT Visitors

Status This torrent has been verified.
*

Torrent Description

General
Format : Matroska
Format version : Version 4 / Version 2
File size : 1.05 GiB
Duration : 1 h 32 min
Overall bit rate : 1 632 kb/s

Video
ID : 1
Format : AVC
Format/Info : Advanced Video Codec
Format profile : [email protected]
Format settings : CABAC / 4 Ref Frames
Format settings, CABAC : Yes
Format settings, RefFrames : 4 frames
Codec ID : V_MPEG4/ISO/AVC
Duration : 1 h 32 min
Bit rate : 1 500 kb/s
Width : 1 280 pixels
Height : 544 pixels
Display aspect ratio : 2.35:1
Frame rate mode : Constant
Frame rate : 23.976 (24000/1001) FPS
Color space : YUV
Chroma subsampling : 4:2:0
Bit depth : 8 bits
Scan type : Progressive
Bits/(Pixel*Frame) : 0.090
Stream size : 989 MiB (92%)
Writing library : x264 core 155 r2901 7d0ff22
Default : Yes
Forced : No

Audio
ID : 2
Format : AAC
Format/Info : Advanced Audio Codec
Format profile : LC
Codec ID : A_AAC-2
Duration : 1 h 31 min
Bit rate : 128 kb/s
Channel(s) : 2 channels
Channel positions : Front: L R
Sampling rate : 48.0 kHz
Frame rate : 46.875 FPS (1024 SPF)
Compression mode : Lossy
Stream size : 84.3 MiB (8%)
Language : Hindi
Default : Yes
Forced : No


Click To Enlarge Image









Similar Torrents

No Similar Torrents Found

If we find similar torrents, we normally show them right here. We couldn't find anything for "".

Torrent Trackers

TRACKER URLSEEDSPEERS
Onlineudp://mgtracker.org:6969/announce1581
Onlineudp://tracker.coppersurfer.tk:6969/announce12153
Onlineudp://tracker.opentrackr.org:1337/announce24
Onlineudp://tracker.pirateparty.gr:6969/announce216
Onlineudp://tracker.open-internet.nl:6969/announce247
Onlineudp://tracker.zer0day.to:1337/announce05

Files inside this torrent

FILENAMESIZE
icon Venom 2018 720p HD-TS Hindi Dubbed x264 [MW].mkv1 GB