Torrent Details

The Equalizer 2 (2018) 720p NEW HDTS x264 AAC 800MB - MovC<font color=#ccc>r</font>
The Equalizer 2 (2018) 720p NEW HDTS x264 AAC 800MB - MovCr
Size815 MB in 1 file
ReleasesAdded on 04.10.2018 at 17:20 into the Movies category by Unknown.
Status83 seeds & 10 peers.
Hasha5c24e2af806660ed0048dec2939c13e7094faf1
Rating
  • YourBT Visitors

Status This torrent has been verified.
*

Torrent Description

Our Site URL http://movcr.cc


The Equalizer 2 (2018) 720p NEW HDTS x264 AAC 800MB - MovCr


http://www.imdb.com/title/tt3766354/




General
Unique ID : 102547558749765079209938870190350274011 (0x4D25F10060704563F0E061D47B0C0DDB)
Complete name : www.MovCr.cc - The Equalizer 2 (2018) 720p NEW HDTS x264 AAC 800MB - MovCr.mkv
Format : Matroska
Format version : Version 4 / Version 2
File size : 815 MiB
Duration : 1 h 55 min
Overall bit rate : 990 kb/s
Movie name : www.MovCr.cc
Encoded date : UTC 2018-10-04 14:54:06
Writing application : mkvmerge v26.0.0 ('In The Game') 64-bit
Writing library : libebml v1.3.6 + libmatroska v1.4.9

Video
ID : 1
Format : AVC
Format/Info : Advanced Video Codec
Format profile : [email protected]
Format settings : 2 Ref Frames
Format settings, CABAC : No
Format settings, RefFrames : 2 frames
Codec ID : V_MPEG4/ISO/AVC
Duration : 1 h 55 min
Bit rate : 856 kb/s
Width : 1 280 pixels
Height : 544 pixels
Display aspect ratio : 2.35:1
Frame rate mode : Constant
Frame rate : 30.000 FPS
Color space : YUV
Chroma subsampling : 4:2:0
Bit depth : 8 bits
Scan type : Progressive
Bits/(Pixel*Frame) : 0.041
Stream size : 705 MiB (86%)
Title : www.MovCr.cc
Language : English
Default : Yes
Forced : No

Audio
ID : 2
Format : AAC
Format/Info : Advanced Audio Codec
Format profile : LC
Codec ID : A_AAC-2
Duration : 1 h 55 min
Bit rate : 132 kb/s
Channel(s) : 2 channels
Channel positions : Front: L R
Sampling rate : 48.0 kHz
Frame rate : 46.875 FPS (1024 SPF)
Compression mode : Lossy
Stream size : 108 MiB (13%)
Title : www.MovCr.cc
Language : English
Default : Yes
Forced : No






Similar Torrents

No Similar Torrents Found

If we find similar torrents, we normally show them right here. We couldn't find anything for "".

Torrent Trackers

TRACKER URLSEEDSPEERS
Onlineudp://tracker.pirateparty.gr:6969/announce837
Onlineudp://tracker.coppersurfer.tk:6969/announce8110
Onlineudp://tracker.opentrackr.org:1337/announce788
Onlineudp://tracker.open-internet.nl:6969/announce162
Onlineudp://mgtracker.org:6969/announce71
Onlineudp://tracker.zer0day.to:1337/announce11

Files inside this torrent

FILENAMESIZE
icon www.MovCr.cc - The Equalizer 2 (2018) 720p NEW HDTS x264 AAC 800MB - MovCr.mkv814.9 MB