Torrent Details

Smallfoot (2018) 720p HQ HDCAMRip x264 AAC 800MB [MovCr]
Smallfoot (2018) 720p HQ HDCAMRip x264 AAC 800MB [MovCr]
Size817 MB in 1 file
ReleasesAdded on 03.10.2018 at 10:20 into the Movies category by Unknown.
Status11 seeds & 5 peers.
Hashdcf1802d9014d0c89288338108656a506a429893
Rating
  • YourBT Visitors

Status This torrent has been verified.
*

Torrent Description

Our Site URL www.movcr.cc


Smallfoot (2018) 720p HQ HDCAMRip x264 AAC 800MB [MovCr]


http://www.imdb.com/title/tt6182908/



General
Unique ID : 175237039556199782547876913405249713712 (0x83D56D1A70DC7A208F7DB447111BF630)
Complete name : www.MovCr.cc - Smallfoot (2018) 720p HQ HDCAMRip x264 AAC 800MB [MovCr].mkv
Format : Matroska
Format version : Version 4 / Version 2
File size : 817 MiB
Duration : 1 h 23 min
Overall bit rate : 1 373 kb/s
Movie name : www.MovCr.cc
Encoded date : UTC 2018-09-30 10:00:32
Writing application : mkvmerge v26.0.0 ('In The Game') 64-bit
Writing library : libebml v1.3.6 + libmatroska v1.4.9

Video
ID : 1
Format : AVC
Format/Info : Advanced Video Codec
Format profile : [email protected]
Format settings : CABAC / 2 Ref Frames
Format settings, CABAC : Yes
Format settings, RefFrames : 2 frames
Codec ID : V_MPEG4/ISO/AVC
Duration : 1 h 23 min
Bit rate : 1 238 kb/s
Width : 1 280 pixels
Height : 544 pixels
Display aspect ratio : 2.35:1
Frame rate mode : Constant
Frame rate : 29.970 (30000/1001) FPS
Color space : YUV
Chroma subsampling : 4:2:0
Bit depth : 8 bits
Scan type : Progressive
Bits/(Pixel*Frame) : 0.059
Stream size : 737 MiB (90%)
Title : www.MovCr.cc
Default : Yes
Forced : No

Audio
ID : 2
Format : AAC
Format/Info : Advanced Audio Codec
Format profile : LC
Codec ID : A_AAC-2
Duration : 1 h 23 min
Bit rate : 132 kb/s
Channel(s) : 2 channels
Channel positions : Front: L R
Sampling rate : 48.0 kHz
Frame rate : 46.875 FPS (1024 SPF)
Compression mode : Lossy
Stream size : 78.0 MiB (10%)
Title : www.MovCr.cc
Language : English
Default : Yes
Forced : No













Similar Torrents

No Similar Torrents Found

If we find similar torrents, we normally show them right here. We couldn't find anything for "".

Torrent Trackers

TRACKER URLSEEDSPEERS
Onlineudp://tracker.pirateparty.gr:6969/announce111
Onlineudp://tracker.coppersurfer.tk:6969/announce91
Onlineudp://tracker.opentrackr.org:1337/announce85
Onlineudp://tracker.open-internet.nl:6969/announce20
Onlineudp://tracker.zer0day.to:1337/announce11
Onlineudp://mgtracker.org:6969/announce02

Files inside this torrent

FILENAMESIZE
icon www.MovCr.cc - Smallfoot (2018) 720p HQ HDCAMRip x264 AAC 800MB [MovCr].mkv816.5 MB