Torrent Details

Photo Not Available
The Meg 2018 NEW HDTC XviD B4ND1T69
Size1.4 GB in 6 files
ReleasesAdded on 25.09.2018 at 4:42 into the Movies category by Unknown.
Status32 seeds & 10 peers.
Hashb4fec4be6829d67ceb145ccc1d7c354e2e616b91
Rating
  • YourBT Visitors

Status This torrent has been verified.
*

Torrent Description

The.Meg.2018.NEW.HDTC.XviD.B4ND1T69



Director: Jon Turteltaub
Writers: Dean Georgaris (screenplay by), Jon Hoeber (screenplay by)
Stars: Jason Statham, Bingbing Li, Rainn Wilson

Plot/Story:
Five years ago, expert sea diver and Naval Captain Jonas Taylor encountered an unknown danger in the unexplored recesses of the Mariana Trench that forced him to abort his mission and abandon half his crew. Though the tragic incident earned him a dishonorable discharge, what ultimately cost him his career, his marriage and any semblance of honor was his unsupported and incredulous claims of what caused it - an attack on his vessel by a mammoth, 70-foot sea creature, believed to be extinct for more than a million years. But when a submersible lies sunk and disabled at the bottom of the ocean - carrying his ex-wife among the team onboard - he is the one who gets the call. Whether a shot at redemption or a suicide mission, Jonas must confront his fears and risk his own life and the lives of everyone trapped below on a single question: Could the Carcharodon Megalodon - the largest marine predator that ever existed - still be alive ... and on the hunt?

Encoder Notes:
Re-filtered the colors, lifted the light, re-synced working audio from my previous release to match...Enjoy Folks.

General
Complete name : The.Meg.2018.NEW.HDTC.XviD.B4ND1T69.avi
Format : AVI
Format/Info : Audio Video Interleave
File size : 1.29 GiB
Duration : 1 h 41 min
Overall bit rate : 1 808 kb/s
Source : 720p HDTC CHS...thanks.
Sample : Included(3)

Video
ID : 0
Format : MPEG-4 Visual
Format profile : Advanced [email protected]
Format settings, BVOP : 2
Format settings, QPel : No
Format settings, GMC : No warppoints
Format settings, Matrix : Default (H.263)
Codec ID : XVID
Codec ID/Hint : XviD
Duration : 1 h 41 min
Bit rate : 1 666 kb/s
Width : 720 pixels
Height : 304 pixels
Display aspect ratio : 2.35:1
Frame rate : 30.000 FPS
Color space : YUV
Chroma subsampling : 4:2:0
Bit depth : 8 bits
Scan type : Progressive
Compression mode : Lossy
Bits/(Pixel*Frame) : 0.254
Stream size : 1.19 GiB (92%)
Writing library : XviD 64

Audio
ID : 1
Format : MPEG Audio
Format version : Version 1
Format profile : Layer 3
Mode : Joint stereo
Mode extension : MS Stereo
Codec ID : 55
Codec ID/Hint : MP3
Duration : 1 h 13 min
Source duration : 1 h 41 min
Bit rate mode : Constant
Bit rate : 128 kb/s
Channel(s) : 2 channels
Sampling rate : 48.0 kHz
Compression mode : Lossy
Stream size : 92.9 MiB (7%)
Alignment : Aligned on interleaves
Interleave, duration : 24 ms (0.72 video frame)

Screenshots:











Please Seed For As Long As Possible
Or At Least 1:1 Ratio...Thanks
Enjoy Peeps



Similar Torrents

No Similar Torrents Found

If we find similar torrents, we normally show them right here. We couldn't find anything for "".

Torrent Trackers

TRACKER URLSEEDSPEERS
Onlineudp://tracker.coppersurfer.tk:6969/announce329
Onlineudp://tracker.pirateparty.gr:6969/announce3210
Onlineudp://tracker.opentrackr.org:1337/announce257
Onlineudp://tracker.zer0day.to:1337/announce114
Onlineudp://mgtracker.org:6969/announce41
Onlineudp://tracker.open-internet.nl:6969/announce30

Files inside this torrent

FILENAMESIZE
icon Downloaded from katcr.co.txt139 B
icon Sample.1.avi33.2 MB
icon Sample.2.avi14.5 MB
icon Sample.3.avi23 MB
icon Seeded by Seedplease SeedBoxes.txt198 B
icon The.Meg.2018.NEW.HDTC.XviD.B4ND1T69.avi1.3 GB