Torrent Details

Photo Not Available
The House with A Clock in Its Walls 2018 Movies HD Cam x264 Clean Audio AAC New Source with Sample ☻rDX☻
Size733 MB in 2 files
ReleasesAdded on 23.09.2018 at 14:20 into the Movies category by Unknown.
Status37 seeds & 21 peers.
Hashefdd7d3dc2051acb45dc279e8791b3a90ae68e1e
Rating
  • YourBT Visitors

Status This torrent has been verified.
*

Torrent Description

The House with A Clock in Its Walls 2018 Movies HD Cam x264 Clean Audio AAC New Source with Sample ☻rDX☻====================================================

SCREEN SHOTS:



or

http://iphonehosting.eu/2018/9/cars/1.html

File size : 726 MiB
Duration : 1 h 38 min
Overall bit rate mode : Constant
Overall bit rate : 1 027 kb/s
Movie name : The House with A Clock in Its Walls 2018 Movies HD Cam x264 Clean Audio AAC New Source ☻rDX☻

Video
ID : 2
Format : AVC
Format/Info : Advanced Video Codec
Format profile : [email protected]
Format settings, CABAC : Yes
Format settings, ReFrames : 2 frames
Format settings, GOP : M=1, N=25
Codec ID : V_MPEG4/ISO/AVC
Duration : 1 h 38 min
Bit rate mode : Constant
Bit rate : 900 kb/s
Width : 680 pixels
Height : 284 pixels
Display aspect ratio : 2.40:1
Frame rate mode : Constant
Frame rate : 29.970 (30000/1001) FPS
Color space : YUV
Chroma subsampling : 4:2:0
Bit depth : 8 bits
Scan type : Progressive
Bits/(Pixel*Frame) : 0.155
Stream size : 621 MiB (86%)
Title : ☻rDX☻
Default : Yes
Forced : No

Audio
ID : 1
Format : MPEG Audio
Format version : Version 1
Format profile : Layer 3
Mode : Joint stereo
Mode extension : MS Stereo
Codec ID : A_MPEG/L3
Codec ID/Hint : MP3
Duration : 1 h 38 min
Bit rate mode : Constant
Bit rate : 128 kb/s
Channel(s) : 2 channels
Sampling rate : 44.1 kHz
Compression mode : Lossy
Stream size : 90.4 MiB (12%)
Title : ☻rDX☻
Default : Yes
Forced : No

http://www.imdb.com/title/tt2119543



Similar Torrents

No Similar Torrents Found

If we find similar torrents, we normally show them right here. We couldn't find anything for "".

Torrent Trackers

TRACKER URLSEEDSPEERS
Onlineudp://tracker.coppersurfer.tk:6969/announce3719
Onlineudp://tracker.pirateparty.gr:6969/announce3621
Onlineudp://tracker.opentrackr.org:1337/announce2213
Onlineudp://tracker.open-internet.nl:6969/announce61

Files inside this torrent

FILENAMESIZE
icon Sample ~ The House with A Clock in Its Walls 2018 Movies HD Cam x264 Clean Audio AAC New Source ☻rDX☻.mkv7 MB
icon The House with A Clock in Its Walls 2018 Movies HD Cam x264 Clean Audio AAC New Source ☻rDX☻.mkv725.6 MB