Torrent Details

Photo Not Available
The Nun (2018) 720p English HQ HDCAM-Rip x264 MP3 700MB - MovCr
Size665 MB in 1 file
ReleasesAdded Today at 3:24 into the Movies category by Unknown.
Status0 seeds & 0 peers.
Hashc42aa7da9a95ad76b2c32b549f4af421a409f9cf
Rating
  • YourBT Visitors

Status This torrent has been verified.
*

Torrent Description

General
Unique ID : 183793188744265288574568459562424922238 (0x8A4547D3F0AB97BC9F87F9D07EBAF07E)
Complete name : D:Torrent316www.MovCr.com - The Nun (2018) 720p English HQ HDCAM-Rip x264 MP3 700MB.mkv
Format : Matroska
Format version : Version 4 / Version 2
File size : 665 MiB
Duration : 1 h 31 min
Overall bit rate mode : Variable
Overall bit rate : 1 020 kb/s
Movie name : www.MovCr.com
Encoded date : UTC 2018-09-06 22:07:55
Writing application : mkvmerge v7.1.0 ('Good Love') 32bit built on Jul 27 2014 12:59:18
Writing library : libebml v1.3.0 + libmatroska v1.4.1

Video
ID : 1
Format : AVC
Format/Info : Advanced Video Codec
Format profile : [email protected]
Format settings : CABAC / 4 Ref Frames
Format settings, CABAC : Yes
Format settings, ReFrames : 4 frames
Codec ID : V_MPEG4/ISO/AVC
Duration : 1 h 31 min
Bit rate : 922 kb/s
Width : 1 280 pixels
Height : 592 pixels
Display aspect ratio : 2.2:1
Frame rate mode : Constant
Frame rate : 29.970 (30000/1001) FPS
Color space : YUV
Chroma subsampling : 4:2:0
Bit depth : 8 bits
Scan type : Progressive
Bits/(Pixel*Frame) : 0.041
Stream size : 601 MiB (90%)
Title : www.MovCr.com
Writing library : x264 core 155 r2901 7d0ff22
Encoding settings : cabac=1 / ref=3 / deblock=1:0:0 / analyse=0x3:0x113 / me=hex / subme=7 / psy=1 / psy_rd=1.00:0.00 / mixed_ref=1 / me_range=16 / chroma_me=1 / trellis=1 / 8x8dct=1 / cqm=0 / deadzone=21,11 / fast_pskip=1 / chroma_qp_offset=-2 / threads=18 / lookahead_threads=3 / sliced_threads=0 / nr=0 / decimate=1 / interlaced=0 / bluray_compat=0 / constrained_intra=0 / bframes=3 / b_pyramid=2 / b_adapt=1 / b_bias=0 / direct=1 / weightb=1 / open_gop=0 / weightp=2 / keyint=300 / keyint_min=29 / scenecut=40 / intra_refresh=0 / rc_lookahead=40 / rc=2pass / mbtree=1 / bitrate=922 / ratetol=1.0 / qcomp=0.60 / qpmin=0 / qpmax=69 / qpstep=4 / cplxblur=20.0 / qblur=0.5 / ip_ratio=1.40 / aq=1:1.00
Language : English
Default : Yes
Forced : No

Audio
ID : 2
Format : MPEG Audio
Format version : Version 1
Format profile : Layer 3
Format settings : Joint stereo / MS Stereo
Codec ID : A_MPEG/L3
Codec ID/Hint : MP3
Duration : 1 h 31 min
Bit rate mode : Variable
Bit rate : 96.0 kb/s
Channel(s) : 2 channels
Sampling rate : 44.1 kHz
Frame rate : 38.281 FPS (1152 SPF)
Compression mode : Lossy
Stream size : 62.1 MiB (9%)
Title : www.MovCr.com
Writing library : LAME3.99r
Encoding settings : -m j -V 4 -q 3 -lowpass 15.1 --abr 96
Language : English
Default : Yes
Forced : No








Similar Torrents

No Similar Torrents Found

If we find similar torrents, we normally show them right here. We couldn't find anything for "".

Torrent Trackers

TRACKER URLSEEDSPEERS
Onlineudp://tracker.pirateparty.gr:6969/announce53
Onlineudp://tracker.open-internet.nl:6969/announce42

Files inside this torrent

FILENAMESIZE
icon www.MovCr.com - The Nun (2018) 720p English HQ HDCAM-Rip x264 MP3 700MB - MovCr.mkv664.8 MB