Torrent Details

Photo Not Available
The Equalizer 2 2018 NEW HD-TS X264 With Sample
Size1.3 GB in 2 files
ReleasesAdded on 04.08.2018 at 15:29 into the Movies category by Unknown.
Status0 seeds & 0 peers.
Hash4ced20a2d6ec6bc9a2deae91af665c8fd84fc5c1
Rating
  • YourBT Visitors

Status This torrent has been verified.
*

Torrent Description

******************************Thumbnail:**********************



******************************Screenshots:********************

Screenshot 1

Screenshot 2

Screenshot 3

Screenshot 4

Screenshot 5

Screenshot 6

Screenshot 7

Screenshot 8

Screenshot 9

Screenshot 0

**************************************************************
Complete name : The Equalizer 2 2018 NEW HD-TS X264.With.Sample.MFH.mp4
Format : MPEG-4
Format profile : Base Media
Codec ID : isom (isom/iso2/avc1/mp41)
File size : 1.31 GiB
Duration : 1 h 55 min
Overall bit rate : 1 627 kb/s


Video
ID : 1
Format : AVC
Format/Info : Advanced Video Codec
Format profile : [email protected]
Format settings : CABAC / 4 Ref Frames
Format settings, CABAC : Yes
Format settings, RefFrames : 4 frames
Codec ID : avc1
Codec ID/Info : Advanced Video Coding
Duration : 1 h 55 min
Bit rate : 1 500 kb/s
Width : 720 pixels
Height : 352 pixels
Display aspect ratio : 2.045
Frame rate mode : Constant
Frame rate : 23.976 (23976/1000) FPS
Color space : YUV
Chroma subsampling : 4:2:0
Bit depth : 8 bits
Scan type : Progressive
Bits/(Pixel*Frame) : 0.247
Stream size : 1.20 GiB (92%)


Audio
ID : 2
Format : MPEG Audio
Format version : Version 1
Format profile : Layer 3
Format settings : Joint stereo / MS Stereo
Codec ID : mp4a-6B
Duration : 1 h 55 min
Duration_LastFrame : -1 ms
Bit rate mode : Constant
Bit rate : 128 kb/s
Channel(s) : 2 channels
Sampling rate : 48.0 kHz
Compression mode : Lossy
Stream size : 105 MiB (8%)
Writing library : LAME3.99.5
Default : Yes
Alternate group : 1



**************************************************************



Similar Torrents

No Similar Torrents Found

If we find similar torrents, we normally show them right here. We couldn't find anything for "".

Torrent Trackers

Files inside this torrent

FILENAMESIZE
icon Sample.ts19.9 MB
icon The Equalizer 2 2018 NEW HD-TS X264.With.Sample.MFH.mp41.3 GB