Torrent Details

Photo Not Available
The Black Prince 2017 Esub HD 720p Hindi GOPISAHI
Size483 MB in 1 file
ReleasesAdded on 12.07.2018 at 19:52 into the Movies category by Unknown.
Status0 seeds & 0 peers.
Hash58b14b4eed311b2f66b511f31917824523b1648b
Rating
  • YourBT Visitors

Status This torrent has been verified.
*

Torrent Description

Format : Matroska

Format version : Version 4 / Version 2

File size : 483 MiB

Duration : 2 h 0 min

Overall bit rate : 559 kb/s

Movie name : The Black Prince 2017 GOPISAHI


Video

Format : AVC

Codec ID : V_MPEG4/ISO/AVC

Duration : 2 h 0 min

Bit rate : 500 kb/s

Width : 1 280 pixels

Height : 530 pixels

Display aspect ratio : 2.40:1

Original display aspect ratio : 2.40:1

Frame rate mode : Constant

Frame rate : 25.000 FPS

Color space : YUV

Chroma subsampling : 4:2:0

Stream size : 432 MiB (89%)

Title : GOPISAHI

Writing library : x264 core 155 r2893 b00bcaf

Language : Hindi


Audio

Format : AAC

Duration : 2 h 0 min

Bit rate : 56.6 kb/s

Channel(s) : 6 channels

Channel positions : Front: L C R, Side: L R, LFE

Sampling rate : 44.1 kHz

Frame rate : 43.066 FPS (1024 SPF)

Compression mode : Lossy

Stream size : 49.0 MiB (10%)

Title : GOPISAHI

Language : Hindi


Text

English




Similar Torrents

No Similar Torrents Found

If we find similar torrents, we normally show them right here. We couldn't find anything for "".

Torrent Trackers

Files inside this torrent

FILENAMESIZE
icon The Black Prince 2017 Esub HD 720p Hindi GOPISAHI.mkv483.2 MB