Torrent Details

Photo Not Available
Dont Think Twice 2016 720p x264 Esub BluRay Dual Audio English Hindi GOPISAHI
Size506 MB in 1 file
ReleasesAdded on 12.07.2018 at 19:46 into the Movies category by Unknown.
Status0 seeds & 0 peers.
Hash0269e1f928ed92db6ce3a5e3f59837f2aa36d0aa
Rating
  • YourBT Visitors

Status This torrent has been verified.
*

Torrent Description

Format : Matroska
Format version : Version 4 / Version 2
File size : 506 MiB
Duration : 1 h 32 min
Overall bit rate : 768 kb/s
Movie name : Dont Think Twice 2016 GOPISAHI

Video
Format : AVC
Codec ID : V_MPEG4/ISO/AVC
Duration : 1 h 32 min
Bit rate : 600 kb/s
Width : 1 280 pixels
Height : 534 pixels
Display aspect ratio : 2.40:1
Original display aspect ratio : 2.40:1
Frame rate mode : Constant
Frame rate : 23.976 (24000/1001) FPS
Stream size : 395 MiB (78%)
Title : GOPISAHI
Writing library : x264 core 155 r2893 b00bcaf

Audio #1
Format : AAC
Duration : 1 h 32 min
Bit rate : 78.5 kb/s
Channel(s) : 6 channels
Channel positions : Front: L C R, Side: L R, LFE
Sampling rate : 44.1 kHz
Frame rate : 43.066 FPS (1024 SPF)
Compression mode : Lossy
Stream size : 51.7 MiB (10%)
Title : GOPISAHI
Language : English

Audio #2
Format : AAC
Duration : 1 h 32 min
Bit rate : 86.8 kb/s
Channel(s) : 6 channels
Channel positions : Front: L C R, Side: L R, LFE
Sampling rate : 44.1 kHz
Frame rate : 43.066 FPS (1024 SPF)
Compression mode : Lossy
Stream size : 57.2 MiB (11%)
Title : GOPISAHI
Language : Hindi

Text
Language : English




Similar Torrents

No Similar Torrents Found

If we find similar torrents, we normally show them right here. We couldn't find anything for "".

Torrent Trackers

Files inside this torrent

FILENAMESIZE
icon Dont Think Twice 2016 720p x264 Esub BluRay Dual Audio English Hindi GOPISAHI.mkv505.5 MB