Torrent Details

Photo Not Available
Deadpool 2 2018 720p HD-TC X264 AAC [MW]
Size1 GB in 1 file
ReleasesAdded on 06/02/18 at 10:08am into the Movies category by Unknown.
Status0 seeds & 0 peers.
Hashf3735cbd76f4a03df231e6f14e5864a5b9965980
Rating
  • YourBT Visitors

Status This torrent has been verified.
*

Torrent Description

General
Format : Matroska
Format version : Version 4 / Version 2
File size : 1.04 GiB
Duration : 1 h 53 min
Overall bit rate : 1 321 kb/s

Video
ID : 1
Format : AVC
Format/Info : Advanced Video Codec
Format profile : [email protected]
Format settings : CABAC / 4 Ref Frames
Format settings, CABAC : Yes
Format settings, RefFrames : 4 frames
Codec ID : V_MPEG4/ISO/AVC
Duration : 1 h 53 min
Bit rate : 1 200 kb/s
Width : 1 280 pixels
Height : 448 pixels
Display aspect ratio : 2.857
Frame rate mode : Constant
Frame rate : 30.000 FPS
Color space : YUV
Chroma subsampling : 4:2:0
Bit depth : 8 bits
Scan type : Progressive
Bits/(Pixel*Frame) : 0.070
Stream size : 964 MiB (90%)
Writing library : x264 core 155 r2893 b00bcaf
Default : Yes
Forced : No

Audio
ID : 2
Format : AAC
Format/Info : Advanced Audio Codec
Format profile : LC
Codec ID : A_AAC-2
Duration : 1 h 53 min
Bit rate : 128 kb/s
Channel(s) : 2 channels
Channel positions : Front: L R
Sampling rate : 48.0 kHz
Frame rate : 46.875 FPS (1024 SPF)
Compression mode : Lossy
Stream size : 104 MiB (10%)
Language : English
Default : Yes
Forced : No















Similar Torrents

No Similar Torrents Found

If we find similar torrents, we normally show them right here. We couldn't find anything for "".

Torrent Trackers

Files inside this torrent

FILENAMESIZE
icon Deadpool 2 2018 720p HD-TC X264 AAC [MW].mkv1 GB